Подписывайся на наш канал в Telegram https://t.me/torrentok и получи доступ к торрентам без ограничений!
RSS подписка
По вопросам авторских прав: web...@...Показать

Taylor Swift - Folklore (2020) FLAC скачать торрент бесплатно

Добавлено: Вчера, 11:00 | Просмотров (0) | Комментариев (0)

Taylor Swift - Folklore (2020) FLAC
Автор: Taylor Swift | Музыкальный релиз: Folklore
Страна: USA | Направление: Indie-Folk, Alternative-Rock
Год выпуска: 2020 | Время прослушивания: 01: 03: 38
Аудио кодек: FLAC | Музыкальный битрейт: Lossless
Количество каналов: 2.0 | Разрядность: 24/44, 1
Тип рипа: tracks



tracklist
01. The 1 03: 30
02. Cardigan 03: 59
03. The Last Great American Dynasty 03: 50
04. Exile (featuring Bon Iver) 04: 45
05. My Tears Ricochet 04: 15
06. Mirrorball 03: 28
07. Seven 03: 28
08. August 04: 21
09. This Is Me Trying 03: 15
10. Illicit Affairs 03: 10
11. Invisible S;tring 04: 12
12. Mad Woman 03: 57
13. Epiphany 04: 49
14. Betty 04: 54
15. Peace 03: 54
16. Hoax 03: 40
DR
foobar2000 1.5/Замер динамического диапазона (DR) 1.1.1
Дата отчёта: 2020-08-01 05: 14: 33
--------------------------------------------------------------------------------
Анализ: Taylor Swift, Bon Iver/folklore (1)
Taylor Swift/folklore (2-16)
--------------------------------------------------------------------------------
DR Пики RMS Продолжительность трека
--------------------------------------------------------------------------------
DR6 0.00 дБ -8.31 дБ 4: 46 04-exile
DR7 0.00 дБ -7.91 дБ 3: 30 01-the 1
DR6 0.00 дБ -8.21 дБ 4: 00 02-cardigan
DR6 0.00 дБ -7.86 дБ 3: 51 03-the last great american dynasty
DR7 0.00 дБ -11.25 дБ 4: 16 05-my tears ricochet
DR9 0.00 дБ -10.91 дБ 3: 29 06-mirrorball
DR7 0.00 дБ -8.72 дБ 3: 29 07-seven
DR6 0.00 дБ -9.27 дБ 4: 22 08-august
DR7 0.00 дБ -9.34 дБ 3: 15 09-this is me trying
DR7 0.00 дБ -10.51 дБ 3: 11 10-illicit affairs
DR7 0.00 дБ -8.13 дБ 4: 13 11-invisible s;tring
DR7 0.00 дБ -8.12 дБ 3: 57 12-mad woman
DR8 0.00 дБ -10.50 дБ 4: 50 13-epiphany
DR7 0.00 дБ -10.20 дБ 4: 55 14-betty
DR8 0.00 дБ -10.92 дБ 3: 54 15-peace
DR9 0.00 дБ -10.84 дБ 3: 40 16-hoax
--------------------------------------------------------------------------------
Количество треков: 16
Реальные значения DR: DR7
Частота: 44100 Гц
Каналов: 2
Разрядность: 24
Битрейт: 1423 кбит/с
Кодек: FLAC
================================================================================


Дополнительная информация
Folklore — восьмой студийный альбом американской певицы и автора песен Тейлор Свифт, релиз которого состоялся 24 июля 2020 года на лейбле Republic Records, спустя одиннадцать месяцев после седьмого студийного альбома Lover. Альбом был создан Свифт в условиях самоизоляции во время пандемии COVID-19 с помощью продюсера Аарона Десснера и при участии её давнего партнёра Джека Антоноффа. Это неожиданный альбом, ставший сюрпризом для фанатов, так как был анонсирован в социальных сетях всего за несколько часов до выхода. В отличие от поп-звучания предыдущих релизов Свифт, Folklore — это инди-фолк, альтернативный рок и электро-фолк, с преобладанием фортепиано и гитар. Музыкальные критики и обозреватели дали положительные отзывы и высокую оценку новому релизу. Свифт уловила дух времени с помощью длинных, приятных, замысловатых песен из Folklore.
Альбом дебютировал на первом месте в хит-парадах Великобритании, Ирландии, Новой Зеландии и Норвегии.

Залил: JNS82
Размер скачиваемого торрента: 701.09 MB (735142249 Bytes)
 (голосов: 1, оценка 4/5, голосовать можно 1 раз )
Информация
Посетители, находящиеся в группе Гости, не могут оставлять комментарии в данной новости.