Подписывайся на наш канал в Telegram https://t.me/torrentok и получи доступ к торрентам без ограничений!
RSS подписка
По вопросам авторских прав: web...@...Показать

Тролли. Мировой тур / Trolls World Tour (2020) UHD BDRemux 2160p от селезень | 4K | HDR | iTunes скачать торрент бесплатно

Добавлено: 29-06-2020, 11:00 | Просмотров (0) | Комментариев (0)

Тролли. Мировой тур / Trolls World Tour (2020) UHD BDRemux 2160p от селезень | 4K | HDR | iTunes
Детально о кино
Русское название: Тролли. Мировой тур
Русское название в мировом прокате: Trolls World Tour
Создали в: 2020
Категория жанра: Мультфильм, мюзикл, фэнтези, комедия, приключения, семейный, полнометражный
Главный режиссер: Уолт Дорн, Дэвид П. Смит

Актеры
Джастин Тимберлейк, Анна Кендрик, Джеймс Корден, Оззи Осборн, Рэйчел Блум, Андерсон Паак, Джордж Клинтон, Мэри Джей Блайдж, Келли Кларксон, Рон Фанчес

О фильме: Поп-тролли в шоке - оказывается, мир музыки гораздо больше, чем они думали. Рейвы, оупен-эйры, классические концерты и, конечно, хип-хоп баттлы - впереди их ждет головокружительное веселье. Но неудержимая королева Рокс планирует уничтожить все... чтобы миром безоговорочно правил хард-рок! Розочка, Цветан и их новые друзья отправляются в невероятное путешествие: им предстоит объединить всех троллей и помешать Рокс.
Снималось в: США
Киностудия: DreamWorks Animation
Время просмотра: 01: 30: 43
Перевод текста: Дублированный | iTunes
Качество фильма: BDRemux 2160p
Информация о видео: 3840x2160 at 23.976 fps, MPEG-H HEVC HDR Video, 41200 kbps avg
Информация о звуке #01: 48 kHz, AC3, 5.1, 384 Kbps | iTunes | RUS|
Информация о звуке #02: 48 kHz, TrueHD, 5.1, 3173 Kbps | Оригинал | ENG|
Информация о звуке #03: 48 kHz, AC3, 5.1, 448 Kbps | Оригинал | ENG|
Субтитры: Английские

MI
General
Unique ID : 34589062768192274294016435553108810976 (0x1A059C75DB64689643FDD1F52CD4DCE0)
Complete name : E: Video111Trolls.World.Tour.2020.BDREMUX.2160p.HDR.seleZen.mkv
Format : Matroska
Format version : Version 4
File size : 28.7 GiB
Duration : 1 h 30 min
Overall bit rate mode : Variable
Overall bit rate : 45.2 Mb/s
Movie name : Trolls World Tour 2020 from селезень
Encoded date : UTC 2020-06-28 08: 26: 15
Writing application : mkvmerge v40.0.0 (;Old Town Road + Pony;) 64-bit
Writing library : libebml v1.3.9 + libmatroska v1.5.2
Video
ID : 1
Format : HEVC
Format/Info : High Efficiency Video Coding
Format profile : Main 10@L5.1@High
HDR format : SMPTE ST 2094 App 4, Version 1, HDR10+ Profile B compatible
Codec ID : V_MPEGH/ISO/HEVC
Duration : 1 h 30 min
Bit rate : 41.2 Mb/s
Width : 3 840 pixels
Height : 2 160 pixels
Display aspect ratio : 16: 9
Frame rate mode : Constant
Frame rate : 23.976 (24000/1001) FPS
Color space : YUV
Chroma subsampling : 4: 2: 0 (Type 2)
Bit depth : 10 bits
Bits/(Pixel*Frame) : 0.207
Stream size : 26.1 GiB (91%)
Language : English
Default : Yes
Forced : No
Color range : Limited
Color primaries : BT.2020
Transfer characteristics : PQ
Matrix coefficients : BT.2020 non-constant
Mastering display color primaries : Display P3
Mastering display luminance : min: 0.0010 cd/m2, max: 1000 cd/m2
Maximum Content Light Level : 1000 cd/m2
Maximum Frame-Average Light Level : 462 cd/m2
Audio #1
ID : 2
Format : AC-3
Format/Info : Audio Coding 3
Commercial name : Dolby Digital
Codec ID : A_AC3
Duration : 1 h 30 min
Bit rate mode : Constant
Bit rate : 384 kb/s
Channel(s) : 6 channels
Channel layout : L R C LFE Ls Rs
Sampling rate : 48.0 kHz
Frame rate : 31.250 FPS (1536 SPF)
Compression mode : Lossy
Stream size : 249 MiB (1%)
Title : iTunes
Language : Russian
Service kind : Complete Main
Default : Yes
Forced : Yes
Audio #2
ID : 3
Format : MLP FBA 16-ch
Format/Info : Meridian Lossless Packing FBA with 16-channel presentation
Commercial name : Dolby TrueHD with Dolby Atmos
Codec ID : A_TRUEHD
Duration : 1 h 30 min
Bit rate mode : Variable
Bit rate : 3 173 kb/s
Maximum bit rate : 5 049 kb/s
Channel(s) : 8 channels
Channel layout : L R C LFE Ls Rs Lb Rb
Sampling rate : 48.0 kHz
Frame rate : 1 200.000 FPS (40 SPF)
Compression mode : Lossless
Stream size : 2.01 GiB (7%)
Title : Original
Language : English
Default : No
Forced : No
Number of dynamic objects : 11
Bed channel count : 1 channel
Bed channel configuration : LFE
Audio #3
ID : 4
Format : AC-3
Format/Info : Audio Coding 3
Commercial name : Dolby Digital
Codec ID : A_AC3
Duration : 1 h 30 min
Bit rate mode : Constant
Bit rate : 448 kb/s
Channel(s) : 6 channels
Channel layout : L R C LFE Ls Rs
Sampling rate : 48.0 kHz
Frame rate : 31.250 FPS (1536 SPF)
Compression mode : Lossy
Stream size : 291 MiB (1%)
Language : English
Service kind : Complete Main
Default : No
Forced : No
Text
ID : 5
Format : UTF-8
Codec ID : S_TEXT/UTF8
Codec ID/Info : UTF-8 Plain Text
Duration : 1 h 30 min
Bit rate : 93 b/s
Count of elements : 2109
Stream size : 61.5 KiB (0%)
Title : SDH
Language : English
Default : No
Forced : No
Menu
00: 00: 00.000 : en: Chapter 1
00: 05: 12.771 : en: Chapter 2
00: 08: 44.899 : en: Chapter 3
00: 12: 51.729 : en: Chapter 4
00: 18: 25.813 : en: Chapter 5
00: 22: 58.836 : en: Chapter 6
00: 27: 36.405 : en: Chapter 7
00: 30: 34.583 : en: Chapter 8
00: 34: 23.353 : en: Chapter 9
00: 38: 27.138 : en: Chapter 10
00: 41: 13.096 : en: Chapter 11
00: 46: 19.276 : en: Chapter 12
00: 50: 12.426 : en: Chapter 13
00: 54: 22.926 : en: Chapter 14
00: 59: 22.726 : en: Chapter 15
01: 03: 39.274 : en: Chapter 16
01: 06: 25.523 : en: Chapter 17
01: 10: 18.297 : en: Chapter 18
01: 15: 41.829 : en: Chapter 19
01: 21: 19.917 : en: Chapter 20

Релиз подготовил:


Онлайн видео Тролли. Мировой тур


Размер скачиваемого торрента: 28.68 GB (30792285616 Bytes)
 (голосов: 1, оценка 3/5, голосовать можно 1 раз )
Информация
Посетители, находящиеся в группе Гости, не могут оставлять комментарии в данной новости.