Подписывайся на наш канал в Telegram https://t.me/torrentok и получи доступ к торрентам без ограничений!
RSS подписка
По вопросам авторских прав: web...@...Показать

Центральный парк / Central Park (2020) WEBRip 720p | OMSKBIRD скачать торрент бесплатно

Добавлено: 28-06-2020, 11:00 | Просмотров (0) | Комментариев (0)

Центральный парк / Central Park (2020) WEBRip 720p | OMSKBIRD
Детально о кино
Русское название: Центральный парк
Русское название в мировом прокате: Central Park
Создали в: 2020
Категория жанра: Мультфильм, мюзикл, комедия
Главный режиссер: Кори Барнс, Марио Д;Анна-младший, Гэвин Делл

Актеры
Кристен Белл, Титус Берджесс, Давид Диггс, Джош Гэд, Кэтрин Хан, Лесли Одом мл., Стэнли Туччи, Максмиллиан Робинсон и другие.

Сюжет фильма

Семья смотрителя живёт в Центральном парке Нью-Йорка. Они присматривают за порядком, разбираются с личными проблемами и иногда даже спасают мир.

Снималось в: США
Киностудия: 20th Century Fox Television, Brillstein Entertainment Partners, Fox Television Animation
Время просмотра: ~ 00: 25: 00 серия
Перевод текста: Любительский (многоголосый закадровый) |OMSKBIRD records
Файл
Кодек для видео: MPEG-4 AVC/x.264
Качество фильма: WEBRip 720p
Информация о видео: 1280x720 (16: 9), 23.976 fps, 2999 kbps, 0.136 bit/pixel
Информация о звуке:
Информация о звуке rus: AC-3, 48 KHz, 2 ch, 192 kbps |OMSKBIRD records
Субтитры: русские, форсированные (перевод песен)

Семпл
MediaInfo:

Общее
Уникальный идентификатор : 260256660844130763695402717560638800425 (0xC3CB9C110345A86184C87B9C740C0229)
Полное имя : G: Central.Park.S01.720p.WEBRip.OmskBirdCentral.Park.S01E01.720p.WEBRip.OmskBird.mkv
Формат : Matroska
Версия формата : Version 4
Размер файла : 579 Мбайт
Продолжительность : 25 м. 20 с.
Общий поток : 3191 Кбит/сек
Дата кодирования : UTC 2020-05-30 05: 32: 28
Программа кодирования : mkvmerge v46.0.0 (;No Deeper Escape;) 64-bit
Библиотека кодирования : libebml v1.3.10 + libmatroska v1.5.2
Видео
Идентификатор : 1
Формат : AVC
Формат/Информация : Advanced Video Codec
Профиль формата : Main@L3.1
Настройки формата : CABAC/1 Ref Frames
Параметр CABAC формата : Да
Параметр RefFrames формата : 1 кадр
Параметр GOP формата : M=1, N=25
Идентификатор кодека : V_MPEG4/ISO/AVC
Продолжительность : 25 м. 20 с.
Вид битрейта : Постоянный
Битрейт : 2999 Кбит/сек
Ширина : 1280 пикселей
Высота : 720 пикселей
Соотношение сторон : 16: 9
Режим частоты кадров : Постоянный
Частота кадров : 23, 976 (24000/1001) кадра/сек
Цветовое пространство : YUV
Субдискретизация насыщенности : 4: 2: 0
Битовая глубина : 8 бит
Тип развёртки : Прогрессивная
Бит/(Пиксели*Кадры) : 0.136
Размер потока : 543 Мбайт (94%)
Язык : English
Default : Да
Forced : Нет
Аудио
Идентификатор : 2
Формат : AC-3
Формат/Информация : Audio Coding 3
Коммерческое название : Dolby Digital
Идентификатор кодека : A_AC3
Продолжительность : 25 м. 20 с.
Вид битрейта : Постоянный
Битрейт : 192 Кбит/сек
Каналы : 2 канала
ChannelLayout : L R
Частота : 48, 0 КГц
Частота кадров : 31, 250 кадров/сек (1536 SPF)
Метод сжатия : С потерями
Размер потока : 34, 8 Мбайт (6%)
Заголовок : OmskBird
Язык : Russian
Default : Да
Forced : Нет
Текст
Идентификатор : 3
Формат : UTF-8
Идентификатор кодека : S_TEXT/UTF8
Идентификатор кодека/Информация : UTF-8 Plain Text
Продолжительность : 23 м. 39 с.
Битрейт : 57 бит/сек
ElementCount : 170
Размер потока : 10, 0 Кбайт (0%)
Заголовок : forced
Язык : Russian
Default : Да
Forced : Да
Скриншоты


Внимание! Раздача ведётся путём добавления новых серий.

Внимание! Раздача ведётся путём добавления новых серий; при каждом добавлении создётся новый торрент. Чтобы начать докачку новой серии, пользователям необходимо сделать следующее:
Остановить скачивание.
Удалить старый торрент у себя из клиента (старые серии удалять не надо).
Скачать новый торрент и запустить его у себя в клиенте вместо старого, при этом указать клиенту путь в старую папку куда и должно происходить скачивание новых серий.
Ваш клиент при этом должен произвести хеширование (проверку) старой папки (если не производит сам - помогите ему сделать это), и будет докачивать только те серии которых у вас ещё нет. Старые серии при этом не удаляются, а продолжают раздаваться!
Eсли вы уже удалили старые серии, то предотвратить повторную закачку старых серий можно, отжав галочку в соответсвующих местах при запуске нового торрента. По возможности, желательно не удалять старые серии как можно дольше чтобы релизёр не столько продолжал раздавать старые серии, а смог сконцентрироваться на новых.

Релиз подготовил:
Залил: skyn s61
Размер скачиваемого торрента: 3.36 GB (3603357950 Bytes)
 (голосов: 1, оценка 4/5, голосовать можно 1 раз )
Информация
Посетители, находящиеся в группе Гости, не могут оставлять комментарии в данной новости.