Подписывайся на наш канал в Telegram https://t.me/torrentok и получи доступ к торрентам без ограничений!
RSS подписка
По вопросам авторских прав: web...@...Показать

Тролли. Мировой тур / Trolls World Tour (2020) BDRip 720p от селезень | iTunes скачать торрент бесплатно

Добавлено: 27-06-2020, 11:00 | Просмотров (0) | Комментариев (0)

Тролли. Мировой тур / Trolls World Tour (2020) BDRip 720p от селезень | iTunes
Детально о кино
Русское название: Тролли. Мировой тур
Русское название в мировом прокате: Trolls World Tour
Создали в: 2020
Категория жанра: Мультфильм, мюзикл, фэнтези, комедия, приключения, семейный, полнометражный
Главный режиссер: Уолт Дорн, Дэвид П. Смит

Актеры
Джастин Тимберлейк, Анна Кендрик, Джеймс Корден, Оззи Осборн, Рэйчел Блум, Андерсон Паак, Джордж Клинтон, Мэри Джей Блайдж, Келли Кларксон, Рон Фанчес

О фильме: Поп-тролли в шоке - оказывается, мир музыки гораздо больше, чем они думали. Рейвы, оупен-эйры, классические концерты и, конечно, хип-хоп баттлы - впереди их ждет головокружительное веселье. Но неудержимая королева Рокс планирует уничтожить все... чтобы миром безоговорочно правил хард-рок! Розочка, Цветан и их новые друзья отправляются в невероятное путешествие: им предстоит объединить всех троллей и помешать Рокс.
Снималось в: США
Киностудия: DreamWorks Animation
Время просмотра: 01: 30: 43
Перевод текста: Дублированный | iTunes
Качество фильма: BDRip 720p
Информация о видео: MPEG-4 AVC, 1280x544, 5600 Kbit/s, 23.976 fps
Информация о звуке #01: 48 kHz, AC3, 5.1, 384 Kbps | iTunes | RUS|
Информация о звуке #02: 48 kHz, AC3, 5.1, 448 Kbps | Оригинал | ENG|
Субтитры: Английские

MI
General
Unique ID : 61601121359340754648599749672644452799 (0x2E57F1C5BB04E1DBE5671AB5248121BF)
Complete name : E: Video111Trolls.World.Tour.2020.BDRip.720p.seleZen.mkv
Format : Matroska
Format version : Version 4
File size : 4.08 GiB
Duration : 1 h 30 min
Overall bit rate : 6 437 kb/s
Movie name : Trolls World Tour 2020 from селезень
Encoded date : UTC 2020-06-26 08: 44: 38
Writing application : mkvmerge v40.0.0 (;Old Town Road + Pony;) 64-bit
Writing library : libebml v1.3.9 + libmatroska v1.5.2
Video
ID : 1
Format : AVC
Format/Info : Advanced Video Codec
Format profile : High@L4.1
Format settings : CABAC/12 Ref Frames
Format settings, CABAC : Yes
Format settings, Reference : 12 frames
Codec ID : V_MPEG4/ISO/AVC
Duration : 1 h 30 min
Bit rate : 5 600 kb/s
Width : 1 280 pixels
Height : 544 pixels
Display aspect ratio : 2.35: 1
Frame rate mode : Constant
Frame rate : 23.976 (24000/1001) FPS
Color space : YUV
Chroma subsampling : 4: 2: 0
Bit depth : 8 bits
Scan type : Progressive
Bits/(Pixel*Frame) : 0.335
Stream size : 3.55 GiB (87%)
Title : HDChina
Writing library : x264 core 152 r2851kMod ba24899
Encoding settings : cabac=1/ref=12/deblock=1: -1: -1/analyse=0x3: 0x133/me=umh/subme=11/psy=1/fade_compensate=0.00/psy_rd=0.80: 0.00/mixed_ref=1/me_range=48/chroma_me=1/trellis=2/8x8dct=1/cqm=0/deadzone=21, 11/fast_pskip=0/chroma_qp_offset=-2/threads=17/lookahead_threads=2/sliced_threads=0/nr=0/decimate=0/interlaced=0/bluray_compat=0/constrained_intra=0/bframes=8/b_pyramid=2/b_adapt=2/b_bias=0/direct=3/weightb=1/open_gop=0/weightp=2/keyint=240/keyint_min=2/scenecut=40/intra_refresh=0/rc_lookahead=0/rc=2pass/mbtree=0/bitrate=5600/ratetol=1.0/qcomp=0.70/qpmin=0/qpmax=69/qpstep=4/cplxblur=20.0/qblur=0.5/vbv_maxrate=50000/vbv_bufsize=30000/nal_hrd=none/filler=0/ip_ratio=1.30/pb_ratio=1.20/aq=3: 1.10
Language : English
Default : Yes
Forced : No
Audio #1
ID : 2
Format : AC-3
Format/Info : Audio Coding 3
Commercial name : Dolby Digital
Codec ID : A_AC3
Duration : 1 h 30 min
Bit rate mode : Constant
Bit rate : 384 kb/s
Channel(s) : 6 channels
Channel layout : L R C LFE Ls Rs
Sampling rate : 48.0 kHz
Frame rate : 31.250 FPS (1536 SPF)
Compression mode : Lossy
Stream size : 249 MiB (6%)
Title : iTunes
Language : Russian
Service kind : Complete Main
Default : Yes
Forced : Yes
Audio #2
ID : 3
Format : AC-3
Format/Info : Audio Coding 3
Commercial name : Dolby Digital
Codec ID : A_AC3
Duration : 1 h 30 min
Bit rate mode : Constant
Bit rate : 448 kb/s
Channel(s) : 6 channels
Channel layout : L R C LFE Ls Rs
Sampling rate : 48.0 kHz
Frame rate : 31.250 FPS (1536 SPF)
Compression mode : Lossy
Stream size : 291 MiB (7%)
Title : Original
Language : English
Service kind : Complete Main
Default : No
Forced : No
Text
ID : 4
Format : UTF-8
Codec ID : S_TEXT/UTF8
Codec ID/Info : UTF-8 Plain Text
Duration : 1 h 30 min
Bit rate : 93 b/s
Count of elements : 2109
Stream size : 61.5 KiB (0%)
Title : SDH
Language : English
Default : No
Forced : No
Menu
00: 00: 00.000 : en: Chapter 01
00: 05: 12.771 : en: Chapter 02
00: 08: 44.899 : en: Chapter 03
00: 12: 51.729 : en: Chapter 04
00: 18: 25.813 : en: Chapter 05
00: 22: 58.836 : en: Chapter 06
00: 27: 36.405 : en: Chapter 07
00: 30: 34.583 : en: Chapter 08
00: 34: 23.353 : en: Chapter 09
00: 38: 27.138 : en: Chapter 10
00: 41: 13.096 : en: Chapter 11
00: 46: 19.276 : en: Chapter 12
00: 50: 12.426 : en: Chapter 13
00: 54: 22.926 : en: Chapter 14
00: 59: 22.726 : en: Chapter 15
01: 03: 39.274 : en: Chapter 16
01: 06: 25.523 : en: Chapter 17
01: 10: 18.297 : en: Chapter 18
01: 15: 41.829 : en: Chapter 19
01: 21: 19.917 : en: Chapter 20

Релиз подготовил:

Размер скачиваемого торрента: 4.08 GB (4380079001 Bytes)
 (голосов: 1, оценка 5/5, голосовать можно 1 раз )
Информация
Посетители, находящиеся в группе Гости, не могут оставлять комментарии в данной новости.