Подписывайся на наш канал в Telegram https://t.me/torrentok и получи доступ к торрентам без ограничений!
RSS подписка
По вопросам авторских прав: web...@...Показать

Герой СамСам / SamSam (2019) WEB-DL 1080p от селезень | iTunes скачать торрент бесплатно

Добавлено: 27-06-2020, 11:00 | Просмотров (0) | Комментариев (0)

Герой СамСам / SamSam (2019) WEB-DL 1080p от селезень | iTunes
Детально о кино
Русское название: Герой СамСам
Русское название в мировом прокате: SamSam
Создали в: 2019
Категория жанра: Мультфильм
Главный режиссер: Танги де Кермель

Актеры
Исаак Лобе-Лебель, Лиор Шабба, Жереми Прево, Себастьян Дежу, Дамиен Буассо, Лоран Морель, Мари-Южени Марешаль

О фильме: СамПланета в опасности! На родную обитель знаменитого СамСама напали Мрачуны — инопланетные жуки, которые распространяют по всей Вселенной… грусть. Чтобы победить полчища Мрачунов, герою на помощь придет его давняя подруга по переписке с соседней планеты.
Снималось в: Франция
Киностудия: Canal+ fr, Cine, Compagnie Cinematographique, La, Devtvcine 4, Folivari, France 3 Cinema, France 4, France Televisions
Время просмотра: 01: 17: 44
Перевод текста: Дублированный | iTunes
Качество фильма: WEB-DL 1080p
Информация о видео: MPEG-4 AVC, 1920x804, 4510 Kbit/s, 24.000 fps
Информация о звуке: 48 kHz, AC3, 5.1, 384 Kbps | iTunes | RUS|
Субтитры: Русские (Full)

MI
General
Unique ID : 339632602051358632742062839088628281574 (0xFF82DC1E594D8479F745C932188AB0E6)
Complete name : E: Video111SamSam.2019.WEB-DL.1080p.seleZen.mkv
Format : Matroska
Format version : Version 4
File size : 2.66 GiB
Duration : 1 h 17 min
Overall bit rate : 4 896 kb/s
Movie name : SamSam 2019 from селезень
Encoded date : UTC 2020-06-26 10: 49: 34
Writing application : mkvmerge v40.0.0 (;Old Town Road + Pony;) 64-bit
Writing library : libebml v1.3.9 + libmatroska v1.5.2
Video
ID : 1
Format : AVC
Format/Info : Advanced Video Codec
Format profile : High@L4
Format settings : CABAC/5 Ref Frames
Format settings, CABAC : Yes
Format settings, Reference : 5 frames
Codec ID : V_MPEG4/ISO/AVC
Duration : 1 h 17 min
Bit rate : 4 510 kb/s
Width : 1 920 pixels
Height : 804 pixels
Display aspect ratio : 2.40: 1
Frame rate mode : Constant
Frame rate : 24.000 FPS
Color space : YUV
Chroma subsampling : 4: 2: 0
Bit depth : 8 bits
Scan type : Progressive
Bits/(Pixel*Frame) : 0.122
Stream size : 2.45 GiB (92%)
Language : English
Default : Yes
Forced : No
Color range : Limited
Color primaries : BT.709
Transfer characteristics : BT.709
Matrix coefficients : BT.709
Audio
ID : 2
Format : AC-3
Format/Info : Audio Coding 3
Commercial name : Dolby Digital
Codec ID : A_AC3
Duration : 1 h 17 min
Bit rate mode : Constant
Bit rate : 384 kb/s
Channel(s) : 6 channels
Channel layout : L R C LFE Ls Rs
Sampling rate : 48.0 kHz
Frame rate : 31.250 FPS (1536 SPF)
Compression mode : Lossy
Delay relative to video : -42 ms
Stream size : 214 MiB (8%)
Title : iTunes
Language : Russian
Service kind : Complete Main
Default : Yes
Forced : Yes
Text
ID : 3
Format : UTF-8
Codec ID : S_TEXT/UTF8
Codec ID/Info : UTF-8 Plain Text
Duration : 1 h 16 min
Bit rate : 103 b/s
Count of elements : 955
Stream size : 57.6 KiB (0%)
Title : Full
Language : Russian
Default : No
Forced : No
Menu
00: 00: 00.000 : en: Глава 1
00: 08: 02.541 : en: Глава 2
00: 16: 08.582 : en: Глава 3
00: 24: 30.332 : en: Глава 4
00: 32: 53.957 : en: Глава 5
00: 41: 00.623 : en: Глава 6
00: 49: 00.873 : en: Глава 7
00: 57: 18.914 : en: Глава 8
01: 05: 25.580 : en: Глава 9
01: 13: 22.121 : en: Глава 10

Релиз подготовил:


Онлайн видео Герой СамСам


Размер скачиваемого торрента: 2.66 GB (2854576673 Bytes)
 (голосов: 1, оценка 4/5, голосовать можно 1 раз )
Информация
Посетители, находящиеся в группе Гости, не могут оставлять комментарии в данной новости.