Подписывайся на наш канал в Telegram https://t.me/torrentok и получи доступ к торрентам без ограничений!
RSS подписка
По вопросам авторских прав: web...@...Показать

Центральный парк / Central Park (2020) WEBRip | OMSKBIRD скачать торрент бесплатно

Добавлено: 21-06-2020, 11:00 | Просмотров (0) | Комментариев (0)

Центральный парк / Central Park (2020) WEBRip | OMSKBIRD
Детально о кино
Русское название: Центральный парк
Русское название в мировом прокате: Central Park
Создали в: 2020
Категория жанра: Мультфильм, мюзикл, комедия
Главный режиссер: Кори Барнс, Марио Д;Анна-младший, Гэвин Делл

Актеры
Кристен Белл, Титус Берджесс, Давид Диггс, Джош Гэд, Кэтрин Хан, Лесли Одом мл., Стэнли Туччи, Максмиллиан Робинсон и другие.

Сюжет фильма

Семья смотрителя живёт в Центральном парке Нью-Йорка. Они присматривают за порядком, разбираются с личными проблемами и иногда даже спасают мир.

Снималось в: США
Киностудия: 20th Century Fox Television, Brillstein Entertainment Partners, Fox Television Animation
Время просмотра: ~ 00: 25: 00 серия
Перевод текста: Любительский (многоголосый закадровый) |OMSKBIRD records
Файл
Кодек для видео: XviD
Качество фильма: WEBRip
Информация о видео: 720x400 (1.80: 1), 23.976 fps, ~1594 kbps, 0.23 bit/pixel
Информация о звуке:
Информация о звуке rus: AC-3, 48 KHz, 2 ch, 192 kbps |OMSKBIRD records
Субтитры: русские (отдельно, перевод песен)

Семпл
MediaInfo:

Общее
Полное имя : G: Central.Park.S01.WEBRip.OmskBirdCentral.Park.S01E01.WEBRip.OmskBird.avi
Формат : AVI
Формат/Информация : Audio Video Interleave
Размер файла : 326 Мбайт
Продолжительность : 25 м. 20 с.
Общий поток : 1796 Кбит/сек
Программа кодирования : VirtualDubMod 1.5.10.3 (build 2550/release)
Библиотека кодирования : VirtualDubMod build 2550/release
Видео
Идентификатор : 0
Формат : MPEG-4 Visual
Профиль формата : Simple@L5
Настройки формата : BVOP1
Параметр BVOP формата : 1
Параметр QPel формата : Нет
Параметр GMC формата : Без точки перехода
Параметр матрицы формата : Default (MPEG)
Идентификатор кодека : XVID
Идентификатор кодека/Подсказка : XviD
Продолжительность : 25 м. 20 с.
Битрейт : 1595 Кбит/сек
Ширина : 720 пикселей
Высота : 400 пикселей
Соотношение сторон : 16: 9
Частота кадров : 23, 976 (24000/1001) кадра/сек
Цветовое пространство : YUV
Субдискретизация насыщенности : 4: 2: 0
Битовая глубина : 8 бит
Тип развёртки : Прогрессивная
Метод сжатия : С потерями
Бит/(Пиксели*Кадры) : 0.231
Размер потока : 289 Мбайт (89%)
Библиотека кодирования : XviD 67
Аудио
Идентификатор : 1
Формат : AC-3
Формат/Информация : Audio Coding 3
Коммерческое название : Dolby Digital
Идентификатор кодека : 2000
Продолжительность : 25 м. 20 с.
Вид битрейта : Постоянный
Битрейт : 192 Кбит/сек
Каналы : 2 канала
ChannelLayout : L R
Частота : 48, 0 КГц
Частота кадров : 31, 250 кадров/сек (1536 SPF)
Метод сжатия : С потерями
Размер потока : 34, 8 Мбайт (11%)
Выравнивание : Разделение по промежуткам
Продолжительность промежутка : 42 мс. (1, 00 видеокадр)
Время предзагрузки промежутка : 500 мс.
Скриншоты


Внимание! Раздача ведётся путём добавления новых серий.

Внимание! Раздача ведётся путём добавления новых серий; при каждом добавлении создётся новый торрент. Чтобы начать докачку новой серии, пользователям необходимо сделать следующее:
Остановить скачивание.
Удалить старый торрент у себя из клиента (старые серии удалять не надо).
Скачать новый торрент и запустить его у себя в клиенте вместо старого, при этом указать клиенту путь в старую папку куда и должно происходить скачивание новых серий.
Ваш клиент при этом должен произвести хеширование (проверку) старой папки (если не производит сам - помогите ему сделать это), и будет докачивать только те серии которых у вас ещё нет. Старые серии при этом не удаляются, а продолжают раздаваться!
Eсли вы уже удалили старые серии, то предотвратить повторную закачку старых серий можно, отжав галочку в соответсвующих местах при запуске нового торрента. По возможности, желательно не удалять старые серии как можно дольше чтобы релизёр не столько продолжал раздавать старые серии, а смог сконцентрироваться на новых.

Релиз подготовил:
Залил: skyn s61

Онлайн видео Центральный парк


Размер скачиваемого торрента: 1.58 GB (1698081458 Bytes)
 (голосов: 1, оценка 5/5, голосовать можно 1 раз )
Информация
Посетители, находящиеся в группе Гости, не могут оставлять комментарии в данной новости.