Подписывайся на наш канал в Telegram https://t.me/torrentok и получи доступ к торрентам без ограничений!
RSS подписка
По вопросам авторских прав: web...@...Показать

Башня Бога / Kami no Tou / Tower of God (2020) WEBRip 720p | AniLibria скачать торрент бесплатно

Добавлено: 20-06-2020, 11:00 | Просмотров (0) | Комментариев (0)

Башня Бога / Kami no Tou / Tower of God (2020) WEBRip 720p | AniLibria
Детально о кино
Русское название: Башня Бога
Русское название в мировом прокате: Kami no Tou/Tower of God
Создали в: 2020
Категория жанра: приключения, детектив, драма, фэнтези
Главный режиссер: Сано Такаси
Художник: Симидзу Кэйитиро

Актеры
Итикава Тайти, Хаями Саори, Окамото Нобухико, Миякэ Кэнта, Хонда Марико, Окицу Кадзуюки, Сэкинэ Акира, Эгути Такуя, Фукамати Тосинари, Суэгара Риэ, Оцука Хотю, Цуда Кэндзиро, Оно Дайсукэ, Ёсино Хироюки, Ито Сидзука

Сюжет фильма

В мире появилась таинственная сила, известная как Шинсу. А ещё есть Башня — дом для людей, которые пользуются преимуществами Шинсу и называют себя избранными. Говорят, достигший вершины Башни исполнит все свои желания. Чтобы добраться до верха, Избранные, отобранные хранителем Башни, обязаны пройти испытания… И вместе с ними на Башню взбирается Баам — главный герой и Незаконный, который сам открыл себе двери. Он делает это с одной-единственной целью — найти Рахиль, что была для него всем.

World Art|MAL
Снималось в: Япония
Киностудия: Telecom Animation Film
Время просмотра: 00: 25: 00
Язык: Русский, Японский
Перевод текста: Любительский (многоголосый, закадровый)
Файл
Качество фильма: WEBRip
Тип видео: MKV
Информация о видео кодек: H.264
Информация о звуке кодек: AAC
Информация о видео: 1280x720, 23.976 fps, 4000 kbps
Информация о звуке RUS: 48.0 kHz, AAC, 2 ch, 128 kbps - AniLibria
Информация о звуке JAP: 44.1 kHz, AAC, 2 ch, 128 kbps
Субтитры: русские (встроенные надписи, ASS)
Субтитры: русские (встроенные полный перевод, ASS) - YakuSub Studio (под японские термины)
Субтитры: русские (встроенные полный перевод, ASS) - YakuSub Studio (под корейские термины)
Субтитры: русские (встроенные полный перевод, ASS) - SovetRomantica
Субтитры: русские (встроенные полный перевод, ASS) - Crunchyroll
Озвучка
Релиз подготовил:
Тип перевода: Dejz, Derenn, Hekomi, MyAska
Тайминг и работа со звуком: Hidan
Скриншоты

Список серий
01. Угорь бабочка и шар
02. Корабль Эванкхелл
03. Верная дверь
04. Корона
05. Кому достанется корона?
06. Специализации
07. Обед и салки
08. Задумка Куна
09. Однорогий огр
10. Слёзы и дорога вперёд
11. Охота
MediaInfo
General
Format : Matroska
Format version : Version 4
File size : 773 MiB
Duration : 25 min 24 s
Overall bit rate : 4 254 kb/s
Encoded date : UTC 2020-05-09 11: 58: 42
Writing application : mkvmerge v8.3.0 (;Over the Horizon;) 32bit
Writing library : libebml v1.3.1 + libmatroska v1.4.2
Video
ID : 1
Format : AVC
Format/Info : Advanced Video Codec
Format profile : High@L4
Format settings : CABAC/6 Ref Frames
Format settings, CABAC : Yes
Format settings, Reference : 6 frames
Codec ID : V_MPEG4/ISO/AVC
Duration : 25 min 24 s
Bit rate : 4 000 kb/s
Width : 1 280 pixels
Height : 720 pixels
Display aspect ratio : 16: 9
Frame rate mode : Constant
Frame rate : 23.976 (24000/1001) FPS
Color space : YUV
Chroma subsampling : 4: 2: 0
Bit depth : 8 bits
Scan type : Progressive
Bits/(Pixel*Frame) : 0.181
Stream size : 726 MiB (94%)
Writing library : x264 core 142
Encoding settings : cabac=1/ref=6/deblock=1: 1: 1/analyse=0x3: 0x113/me=umh/subme=8/psy=1/psy_rd=0.40: 0.00/mixed_ref=1/me_range=16/chroma_me=1/trellis=1/8x8dct=1/cqm=0/deadzone=21, 11/fast_pskip=1/chroma_qp_offset=-2/threads=10/lookahead_threads=1/sliced_threads=0/nr=0/decimate=1/interlaced=0/bluray_compat=0/constrained_intra=0/bframes=0/weightp=2/keyint=96/keyint_min=48/scenecut=40/intra_refresh=0/rc_lookahead=48/rc=2pass/mbtree=1/bitrate=4000/ratetol=1.0/qcomp=0.60/qpmin=0/qpmax=69/qpstep=4/cplxblur=20.0/qblur=0.5/vbv_maxrate=6000/vbv_bufsize=9000/nal_hrd=none/filler=0/ip_ratio=1.40/aq=1: 0.60
Default : Yes
Forced : No
Audio #1
ID : 2
Format : AAC LC
Format/Info : Advanced Audio Codec Low Complexity
Codec ID : A_AAC-2
Duration : 25 min 24 s
Bit rate : 128 kb/s
Channel(s) : 2 channels
Channel layout : L R
Sampling rate : 48.0 kHz
Frame rate : 46.875 FPS (1024 SPF)
Compression mode : Lossy
Stream size : 23.3 MiB (3%)
Title : AniLibria
Language : Russian
Default : Yes
Forced : No
Audio #2
ID : 3
Format : AAC LC
Format/Info : Advanced Audio Codec Low Complexity
Codec ID : A_AAC-2
Duration : 25 min 24 s
Bit rate : 128 kb/s
Channel(s) : 2 channels
Channel layout : L R
Sampling rate : 44.1 kHz
Frame rate : 43.066 FPS (1024 SPF)
Compression mode : Lossy
Stream size : 23.3 MiB (3%)
Title : Original
Language : Japanese
Default : No
Forced : No
Text #1
ID : 4
Format : ASS
Codec ID : S_TEXT/ASS
Codec ID/Info : Advanced Sub Station Alpha
Duration : 17 min 47 s
Bit rate : 46 b/s
Count of elements : 64
Compression mode : Lossless
Stream size : 6.04 KiB (0%)
Title : Надписи
Language : Russian
Default : Yes
Forced : No
Text #2
ID : 5
Format : ASS
Codec ID : S_TEXT/ASS
Codec ID/Info : Advanced Sub Station Alpha
Duration : 23 min 28 s
Bit rate : 154 b/s
Count of elements : 365
Compression mode : Lossless
Stream size : 26.6 KiB (0%)
Title : Полные субтитры - YakuSub Studio (под японские термины)
Language : Russian
Default : No
Forced : No
Text #3
ID : 6
Format : ASS
Codec ID : S_TEXT/ASS
Codec ID/Info : Advanced Sub Station Alpha
Duration : 23 min 28 s
Bit rate : 154 b/s
Count of elements : 365
Compression mode : Lossless
Stream size : 26.6 KiB (0%)
Title : Полные субтитры - YakuSub Studio (под корейские термины)
Language : Russian
Default : No
Forced : No
Text #4
ID : 7
Format : ASS
Codec ID : S_TEXT/ASS
Codec ID/Info : Advanced Sub Station Alpha
Duration : 23 min 13 s
Bit rate : 122 b/s
Count of elements : 290
Compression mode : Lossless
Stream size : 20.9 KiB (0%)
Title : Полные субтитры - SovetRomantica
Language : Russian
Default : No
Forced : No
Text #5
ID : 8
Format : ASS
Codec ID : S_TEXT/ASS
Codec ID/Info : Advanced Sub Station Alpha
Duration : 23 min 13 s
Bit rate : 154 b/s
Count of elements : 292
Compression mode : Lossless
Stream size : 26.2 KiB (0%)
Title : Полные субтитры - Crunchyroll
Language : Russian
Default : No
Forced : No


Онлайн видео Башня Бога


Размер скачиваемого торрента: 8.57 GB (9197541147 Bytes)
 (голосов: 1, оценка 4/5, голосовать можно 1 раз )
Информация
Посетители, находящиеся в группе Гости, не могут оставлять комментарии в данной новости.