Подписывайся на наш канал в Telegram https://t.me/torrentok и получи доступ к торрентам без ограничений!
RSS подписка
По вопросам авторских прав: web...@...Показать

Клест / Исука / Isuca (2015) BDRip от Deadmauvlad | Без Цензуры скачать торрент бесплатно

Добавлено: 19-06-2020, 11:00 | Просмотров (0) | Комментариев (0)

Клест / Исука / Isuca (2015) BDRip от Deadmauvlad | Без Цензуры

Русское название: Исука
Русское название в мировом прокате: Isuca
Создали в: 2015
Очередной релиз: с 24 января 2015 по 28 марта 2015
Трансляция: суббота в 01: 35 ночной сеанс на Tokyo MX TV
Категория жанра: гарем, комедия, мистика, приключения, романтика, фэнтези, этти
Тип: TV + OVA
Автор оригинала: Такахаси Осаму
Снято по манге: Isuca
Главный режиссер: Иванага Акира
В главных ролях: Аюми Фудзимура, Ибуки Кидо, Кэисукэ Комото

Описание фильма
Главный герой – Щиничиро Асано, школьник, который по предложению своего учителя решает устроиться на работу экономом в какой-нибудь богатый дом, дабы платить за квартиру. Заступив на дежурство, Щиничиро случайно выпускает на волю какое-то странное существо. Тут-то и выясняется, что нанимательница героя Сакуя – 37-я глава семьи Щимадзу, занимающейся изгнанием и уничтожением нежелательных существ. Чтобы поймать вырвавшуюся тварь, герои объединяют силы в первый раз...

Снималось в: Япония
Киностудия: Студия ARMS
Время просмотра: 11 серий x 00: 24: 00
Возрастное ограничение: 18+ Запрещено для детей
Цензура: Отсутствует(Обзор тут)(см.пример)
Перевод текста: Любительский (двухголосый закадровый) Kano, Aska, (Snowly) Shiza Project
Файл
Тип видео: AVI
Кодек для видео: XviD
Качество фильма: BDRip |Исх: BDRemux 1080p thx Панкратий
Информация о видео720x400 (16: 9), 23.976 fps, 1 577 kb/s (0.228 bit/pixel)
Информация о звуке №1: AC3, 48, 0 КГц, 2 ch, 192 Кбит/сек, CBR || Shiza Project
Информация о звуке №2: AC3, 48, 0 КГц, 2 ch, 192 Кбит/сек, CBR || Japan (Оригинал)
Субтитры : Русские (полный перевод)
Отсутствие Цензуры пример:

Blu-Ray ................................................................TV Version





MediaInfo
Общее
Полное имя : Deadmau- RAWS Клест.RUS.JAP.Без.Цензуры.BDRip.Deadmauvlad.Ep.01.avi
Формат : AVI
Формат/Информация : Audio Video Interleave
Размер файла : 334 Мбайт
Продолжительность : 23 м. 37 с.
Общий поток : 1975 Кбит/сек
Название фильма : Deadmau- RAWS Клест.RUS.JAP.Без.Цензуры.BDRip.Deadmauvlad.Ep.01
Режиссёр : Encoder by Deadmauvlad
Жанр : мистика, романтика, этти
Программа кодирования : VirtualDubMod 1.5.10.3 | www.virtualdub-fr.org || (build 2550/release)
Формат оригинала/Имя : Аниме
Авторское право : Encoder by Deadmauvlad
Примечание : Encoder by Deadmauvlad
Видео
Идентификатор : 0
Формат : MPEG-4 Visual
Профиль формата : Advanced Simple@L5
Настройки формата : BVOP1/Custom Matrix
Параметр BVOP формата : 1
Параметр QPel формата : Нет
Параметр GMC формата : Без точки перехода
Параметр матрицы формата : Выборочная
Идентификатор кодека : XVID
Идентификатор кодека/Подсказка : XviD
Продолжительность : 23 м. 36 с.
Битрейт : 1577 Кбит/сек
Ширина : 720 пикселей
Высота : 400 пикселей
Соотношение сторон : 16: 9
Частота кадров : 23, 976 (24000/1001) кадра/сек
Цветовое пространство : YUV
Субдискретизация насыщенности : 4: 2: 0
Битовая глубина : 8 бит
Тип развёртки : Прогрессивная
Метод сжатия : С потерями
Бит/(Пиксели*Кадры) : 0.228
Размер потока : 266 Мбайт (80%)
Библиотека кодирования : XviD 73
Аудио #1
Идентификатор : 1
Формат : AC-3
Формат/Информация : Audio Coding 3
Коммерческое название : Dolby Digital
Идентификатор кодека : 2000
Продолжительность : 23 м. 37 с.
Вид битрейта : Постоянный
Битрейт : 192 Кбит/сек
Каналы : 2 канала
ChannelLayout : L R
Частота : 48, 0 КГц
Частота кадров : 31, 250 кадров/сек (1536 SPF)
Метод сжатия : С потерями
Размер потока : 32, 4 Мбайт (10%)
Выравнивание : Разделение по промежуткам
Продолжительность промежутка : 42 мс. (1, 00 видеокадр)
Время предзагрузки промежутка : 500 мс.
Аудио #2
Идентификатор : 2
Формат : AC-3
Формат/Информация : Audio Coding 3
Коммерческое название : Dolby Digital
Идентификатор кодека : 2000
Продолжительность : 23 м. 37 с.
Вид битрейта : Постоянный
Битрейт : 192 Кбит/сек
Каналы : 2 канала
ChannelLayout : L R
Частота : 48, 0 КГц
Частота кадров : 31, 250 кадров/сек (1536 SPF)
Метод сжатия : С потерями
Размер потока : 32, 4 Мбайт (10%)
Выравнивание : Разделение по промежуткам
Продолжительность промежутка : 42 мс. (1, 00 видеокадр)
Время предзагрузки промежутка : 500 мс.

Список эпизодов

01. Внезапная встреча
02. Истинное имя
03. Противостояние
04. Театр Теней
05. Око истины
06. Обещание
07. Свет и Тьма
08. Испытание
09. Нападение
10. Решимость
11. Isuca OVA

Хронология
#1 Isuca - ТВ (10 эп.), адаптация манги, 2015 ? (Есть в раздаче)
#2 Isuca OVA - OVA (1 эп.), адаптация манги, 2015 ? (Есть в раздаче)

Скриншоты
Резервные Скриншоты

Релиз/Автор рипа: Deadmauvlad^_^

? ?Аниме Без цензуры © ? ?
Залил: DJ_V.K_TV
Размер скачиваемого торрента: 3.52 GB (3774818139 Bytes)
 (голосов: 1, оценка 4/5, голосовать можно 1 раз )
Информация
Посетители, находящиеся в группе Гости, не могут оставлять комментарии в данной новости.