Подписывайся на наш канал в Telegram https://t.me/torrentok и получи доступ к торрентам без ограничений!
RSS подписка
По вопросам авторских прав: web...@...Показать

Кровавые машины / Blood Machines (2019) WEB-DL 1080p | Sub скачать торрент бесплатно

Добавлено: 25-05-2020, 11:00 | Просмотров (2) | Комментариев (0)

Кровавые машины / Blood Machines (2019) WEB-DL 1080p | Sub
Детально о кино
Русское название: Кровавые машины
Русское название в мировом прокате: Blood Machines
Создали в: 2019
Категория жанра: фантастика, короткометражка
Главный режиссер: Рафаэль Эрнандез, Савитри Джоли-Гонфард

Актеры
Андерс Хейнриксен, Кристиан Эриксон, Наташа Кэшман, Ноеми Стивенс, Уолтер Дикерсон, Элиза Ласовски

Сюжет фильма

Два космических охотника за головами выслеживают искусственный интеллект, который пытается освободиться. Разобравшись с ним, они становятся свидетелями мистического явления: призрак молодой женщины вырывается из машины, как будто у космического корабля есть душа. Пытаясь понять природу этой сущности, они продолжают свою охоту уже за призраком.

Снималось в: Франция
Время просмотра: 00: 57: 12
Язык: Английский
Перевод текста: Субтитры
Файл
Качество фильма: WEB-DL
Тип видео: MKV
Информация о видео кодек: H.264
Информация о звуке кодек: EAC3
Информация о видео: 1920x800, 25.000 fps, 10000 kbps
Информация о звуке ENG: 48.0 kHz, EAC3, 2 ch, 224 kbps
Субтитры: русские (Full, SRT), английские (Full, SRT), английские (SDH, SRT)
Скриншоты

Список серий
01. Мима
02. Кори
03. Трейси
MediaInfo
General
Format : Matroska
Format version : Version 4
File size : 1.15 GiB
Duration : 16 min 33 s
Overall bit rate : 9 955 kb/s
Encoded date : UTC 2020-05-24 06: 41: 05
Writing application : mkvmerge v8.3.0 (;Over the Horizon;) 32bit
Writing library : libebml v1.3.1 + libmatroska v1.4.2
Video
ID : 1
Format : AVC
Format/Info : Advanced Video Codec
Format profile : High@L4
Format settings : CABAC/4 Ref Frames
Format settings, CABAC : Yes
Format settings, Reference : 4 frames
Codec ID : V_MPEG4/ISO/AVC
Duration : 16 min 33 s
Bit rate mode : Constant
Bit rate : 10 000 kb/s
Width : 1 920 pixels
Height : 800 pixels
Display aspect ratio : 2.40: 1
Frame rate mode : Constant
Frame rate : 25.000 FPS
Color space : YUV
Chroma subsampling : 4: 2: 0
Bit depth : 8 bits
Scan type : Progressive
Bits/(Pixel*Frame) : 0.260
Stream size : 1.13 GiB (98%)
Default : Yes
Forced : No
Color range : Limited
Color primaries : BT.709
Transfer characteristics : BT.709
Matrix coefficients : BT.709
Audio
ID : 2
Format : E-AC-3
Format/Info : Enhanced AC-3
Commercial name : Dolby Digital Plus
Codec ID : A_EAC3
Duration : 16 min 33 s
Bit rate mode : Constant
Bit rate : 224 kb/s
Channel(s) : 2 channels
Channel layout : L R
Sampling rate : 48.0 kHz
Frame rate : 31.250 FPS (1536 SPF)
Compression mode : Lossy
Stream size : 26.5 MiB (2%)
Language : English
Service kind : Complete Main
Default : Yes
Forced : No
Text #1
ID : 3
Format : UTF-8
Codec ID : S_TEXT/UTF8
Codec ID/Info : UTF-8 Plain Text
Duration : 12 min 16 s
Bit rate : 38 b/s
Count of elements : 86
Stream size : 3.42 KiB (0%)
Title : Русские
Language : Russian
Default : Yes
Forced : No
Text #2
ID : 4
Format : UTF-8
Codec ID : S_TEXT/UTF8
Codec ID/Info : UTF-8 Plain Text
Duration : 10 min 58 s
Bit rate : 20 b/s
Count of elements : 80
Stream size : 1.63 KiB (0%)
Title : English
Language : English
Default : No
Forced : No
Text #3
ID : 5
Format : UTF-8
Codec ID : S_TEXT/UTF8
Codec ID/Info : UTF-8 Plain Text
Duration : 10 min 58 s
Bit rate : 20 b/s
Count of elements : 80
Stream size : 1.63 KiB (0%)
Title : SDH
Language : English
Default : No
Forced : No


Онлайн видео Кровавые машины


Размер скачиваемого торрента: 3.98 GB (4275919129 Bytes)
 (голосов: 1, оценка 5/5, голосовать можно 1 раз )
Информация
Посетители, находящиеся в группе Гости, не могут оставлять комментарии в данной новости.